<?xml version="1.0" standalone="no"?>
<!DOCTYPE svg PUBLIC "-//W3C//DTD SVG 1.1//EN" "http://www.w3.org/Graphics/SVG/1.1/DTD/svg11.dtd" >
<svg xmlns="http://www.w3.org/2000/svg">
<metadata></metadata>
<defs>
<font id="scottkellum-icoregular" horiz-adv-x="0" >
<font-face units-per-em="1000" ascent="1000" descent="0" />
<missing-glyph horiz-adv-x="500" />
<glyph unicode=" " />
<glyph unicode="A" />
<glyph unicode="B" />
<glyph unicode="C" />
<glyph unicode="D" horiz-adv-x="1000" d="M521 496q-41 -13 -78.5 -36.5t-62 -47t-43.5 -45t-27 -35.5l-9 -14q-69 75 -69 180q0 2 0.5 5t0.5 4q147 0 277 39q3 -6 10.5 -22t10.5 -24q-2 -1 -10 -4zM487 587q-126 -33 -250 -33q13 62 53 112t97 77q40 -50 100 -156zM680 701q0 -2 -12.5 -17t-47.5 -39.5t-80 -41.5 q-55 99 -102 158q29 7 64 7q105 0 178 -67zM437 761h-1h1zM336 285q-2 2 -6 5q1 -1 3 -2.5t3 -2.5zM560 563q48 19 85.5 46t51.5 44l14 17q61 -74 61 -169q-8 2 -29.5 5t-69 6.5t-89.5 -2.5q-1 3 -3 7t-3 7q-2 6 -5 12.5t-7 14.5zM549 454q1 0 1 1q33 -86 58 -206 q-53 -21 -106 -21q-93 0 -166 57l1 1q6 12 16 25.5t34.5 42t67 55.5t94.5 45zM502 934q181 0 308.5 -127.5t127.5 -308.5t-127.5 -308.5t-308.5 -127.5q-180 0 -308 127.5t-128 308.5t128 308.5t308 127.5zM819 498q0 133 -94 225t-223 92q-56 0 -111.5 -21.5t-101.5 -60.5 t-74.5 -100.5t-28.5 -134.5q0 -130 93 -223t223 -93q132 0 224.5 93.5t92.5 222.5zM600 467q90 14 169 -12q-18 -114 -116 -180q-21 107 -53 192z" />
<glyph unicode="E" horiz-adv-x="1000" d="M47 122v513l452 -255l453 255v-513h-905zM499 892l453 -255h-905z" />
<glyph unicode="F" horiz-adv-x="1000" d="M623 78v315h135v137h-135v79q0 27 28 27h107l-11 137h-113q-66 0 -106 -44t-40 -116v-83h-110v-137h110v-332q-177 6 -299.5 133t-122.5 304q0 181 128 308.5t309 127.5t308.5 -127.5t127.5 -308.5q0 -148 -88.5 -264.5t-227.5 -155.5z" />
<glyph unicode="G" horiz-adv-x="1000" d="M361 421q15 0 26 -16t11 -38t-11 -38t-26 -16q-16 0 -27 16t-11 38t11 38t27 16zM663 421q16 0 27 -16t11 -38t-11 -38t-27 -16q-15 0 -26 16t-11 38t11 38t26 16zM730 470h1q46 -43 46 -94q0 -34 -7.5 -60t-19 -43.5t-33.5 -29.5t-40.5 -18.5t-51 -10t-56 -4t-62.5 -0.5 q-50 0 -86.5 3.5t-73 13.5t-59.5 28t-37.5 48.5t-14.5 72.5q0 51 46 94q22 20 52 25t90.5 0.5t82.5 -4.5q25 0 66 3t64 3.5t49.5 -5.5t43.5 -22zM508 312q-17 0 -17 -16t17 -16q16 0 16 16t-16 16zM360 287q23 0 39.5 23.5t16.5 57.5q0 35 -16 58t-40 23q-23 0 -39.5 -23.5 t-16.5 -57.5t16.5 -57.5t39.5 -23.5zM552 264q1 4 -4 8q-6 2 -8 -4q-8 -23 -32 -23q-26 0 -34 23q-2 6 -8 4q-5 -4 -4 -8q12 -32 46 -32q32 0 44 32zM663 287q23 0 39.5 23.5t16.5 57.5t-16.5 57.5t-39.5 23.5t-40 -23.5t-17 -57.5t17 -57.5t40 -23.5zM899 316l-55 5 q1 2 2.5 5.5t2.5 5.5l57 -1l-3.5 -7t-3.5 -8zM143 467q0 91 59 153q-27 68 6 151q2 1 6 1.5t18 -1t30.5 -6.5t44 -18.5t58.5 -34.5q71 19 143 19q63 0 129 -16q47 31 85 45t52 12l15 -1q29 -74 9 -141q67 -67 67 -163q0 -78 -12 -120l58 -1q28 73 28 151q0 181 -128 309 t-309 128t-309 -128t-128 -309q0 -79 28 -152l67 1q-17 50 -17 121zM607 184q98 10 152.5 40.5t79.5 82.5l54 -5q-56 -109 -160.5 -175t-230.5 -66q-125 0 -229.5 65.5t-160.5 174.5l65 6q58 -103 235 -123q36 -3 96 -3zM99 330l66 1l2.5 -5l2.5 -5l-65 -6z" />
<glyph unicode="H" />
<glyph unicode="I" />
<glyph unicode="J" />
<glyph unicode="K" />
<glyph unicode="L" />
<glyph unicode="M" />
<glyph unicode="N" />
<glyph unicode="O" />
<glyph unicode="P" />
<glyph unicode="Q" />
<glyph unicode="R" horiz-adv-x="1000" d="M233 326q-45 0 -75 -28t-30 -71q0 -44 30.5 -74.5t74.5 -30.5q36 0 67.5 31.5t31.5 73.5t-31 70.5t-68 28.5zM478 122h140q0 135 -65 247.5t-177.5 177.5t-247.5 65v-140q142 0 246 -102t104 -248zM723 122h140q0 201 -98 373t-267.5 273t-369.5 101v-152 q159 0 295.5 -78.5t218 -216t81.5 -300.5z" />
<glyph unicode="S" />
<glyph unicode="T" horiz-adv-x="1000" d="M983 769q-42 -62 -100 -104v-24q0 -98 -37 -195.5t-104 -178.5t-174 -131.5t-235 -50.5q-165 0 -301 90q15 -5 48 -5q131 0 238 86q-61 0 -112 37.5t-69 95.5q7 0 19 -2.5t18 -2.5q9 0 54 9q-69 15 -113.5 67.5t-44.5 123.5v5q40 -22 86 -29q-86 63 -86 166q0 52 29 96 q72 -91 175 -144.5t224 -60.5q0 6 -2.5 23t-2.5 25q0 78 59 136t137 58q89 0 142 -61q69 15 123 47q-20 -72 -85 -110q67 11 114 34z" />
<glyph unicode="U" />
<glyph unicode="V" />
<glyph unicode="W" />
<glyph unicode="X" />
<glyph unicode="Y" />
<glyph unicode="Z" />
<glyph unicode="a" />
<glyph unicode="b" />
<glyph unicode="c" />
<glyph unicode="d" />
<glyph unicode="e" />
<glyph unicode="f" />
<glyph unicode="g" />
<glyph unicode="h" />
<glyph unicode="i" />
<glyph unicode="j" />
<glyph unicode="k" />
<glyph unicode="l" />
<glyph unicode="m" />
<glyph unicode="n" />
<glyph unicode="o" />
<glyph unicode="p" />
<glyph unicode="q" />
<glyph unicode="r" />
<glyph unicode="s" />
<glyph unicode="t" />
<glyph unicode="u" />
<glyph unicode="v" />
<glyph unicode="w" />
<glyph unicode="x" />
<glyph unicode="y" />
<glyph unicode="z" />
<glyph unicode="&#xe000;" horiz-adv-x="500" d="M0 0z" />
</font>
</defs>
</svg>
